Info

Funny Games


7.6
IMDB: 7.6/10 46,853 votes

Durata: 108 min

Released:

Anno: 11 Mar 1998

Direttore:

Premi: 4 wins & 6 nominations.

Stato: Released

Paese: Austria

Tagline: Vogliamo scommettere che voi in, diciamo dodici ore, sarete tutti e tre morti?

Cast:




“Vogliamo scommettere che voi in… diciamo dodici ore, sarete tutti e tre morti?”

Anna, Georg e il piccolo Schorschi sono in cammino verso la loro seconda casa, dove passeranno le vacanze estive. I vicini di casa, Fred e Gerda, sono già arrivati e si organizzano per vedersi tutti il giorno dopo per una partita di golf. Mentre suo marito e suo figlio sono al lago per sistemare la barca a vela messa recentemente a nuovo, Anna inizia a preparare la cena. All’improvviso si ritrova faccia a faccia con Peter, un ragazzo estremamente gentile e imbranato, ospite dei vicini di casa, venuto a chiedere delle uova. Poco dopo arriva anche Paul, amico di Peter e come lui, ospite dei loro vicini. Inizialmente cortesi e garbati, i due ragazzi iniziano a diventare insistenti e decisamente molesti, tanto da indurre Anna a chiedere loro di andarsene; i ragazzi si rifiutano, ferendo Georg a una gamba e prendendo letteralmente in ostaggio la povera famiglia, torturandola con meschini e umilianti giochetti, raggiungendo sempre più alti livelli di crudeltà.

Trailer


Upload on Youtube

Info File

Video
ID: 1
Format: AVC
Format/Info: Advanced Video Codec
Format profile: [email protected]
Format settings, CABAC: Yes
Format settings, ReFrames: 5 frames
Codec ID: V_MPEG4/ISO/AVC
Duration: 1h 48mn
Bit rate: 4 232 Kbps
Width: 1 280 pixels
Height: 696 pixels
Display aspect ratio: 1.85:1
Frame rate mode: Constant
Frame rate: 23.976 fps
Color space: YUV
Chroma subsampling: 4:2:0
Bit depth: 8 bits
Scan type: Progressive
Bits/(Pixel*Frame): 0.198
Stream size: 3.14 GiB (85%)
Title: Funny Games (Michael Haneke, 1997)
Writing library: x264 core 128 r2216 198a7ea
Encoding settings: cabac=1 / ref=5 / deblock=1:0:0 / analyse=0x3:0x113 / me=umh / subme=7 / psy=1 / psy_rd=1.00:0.00 /
mixed_ref=1 / me_range=16 / chroma_me=1 / trellis=1 / 8x8dct=1 / cqm=0 / deadzone=21,11 / fast_pskip=0 / chroma_qp_offset=-2 /
threads=18 / lookahead_threads=3 / sliced_threads=0 / nr=0 / decimate=1 / interlaced=0 / bluray_compat=0 / constrained_intra=0 /
bframes=3 / b_pyramid=2 / b_adapt=1 / b_bias=0 / direct=1 / weightb=1 / open_gop=0 / weightp=2 / keyint=250 / keyint_min=23 /
scenecut=40 / intra_refresh=0 / rc_lookahead=40 / rc=2pass / mbtree=1 / bitrate=4232 / ratetol=1.0 / qcomp=0.60 / qpmin=0 /
qpmax=69 / qpstep=4 / cplxblur=20.0 / qblur=0.5 / ip_ratio=1.40 / aq=1:1.00
Language: English
Default: Yes
Forced: No

Audio #1
ID: 2
Format: AC-3
Format/Info: Audio Coding 3
Mode extension: CM (complete main)
Format settings, Endianness: Big
Codec ID: A_AC3
Duration: 1h 48mn
Bit rate mode: Constant
Bit rate: 192 Kbps
Channel count: 2 channels
Channel positions: Front: L R
Sampling rate: 48.0 KHz
Bit depth: 16 bits
Compression mode: Lossy
Stream size: 149 MiB (4%)
Title: Italiano AC3 2.0 192Kbps
Language: Italian
Default: Yes
Forced: No

Trackers

http://tracker.istole.it:80/
http://tracker.tntvillage.scambioetico.org:2710/scrape
http://tracker.publicbt.com:80/
http://open.demonii.com:1337/scrape
http://tracker.coppersurfer.tk:6969/scrape
http://tracker.openbittorrent.com/scrape